Wróć   Sdcv.pl - Forum komputerowe > HydePark > Sport > Inne




 
Narzędzia wątku
Stare 08-02-19, 16:01   #1
zygi151151
..:: Junior Member ::..
 
Awatar zygi151151
 
Dołączył: Jan 2019
Skąd: Polska
Wiek: 31
Posty: 62
Rozdane podziękowania: 0
Podziękowano mu 1 raz
Siła reputacji: 3
zygi151151
Domyślnie Brazilian Jiu-jitsu for Kids cz3. Kontrola przeciwnika [EN]

Tytuł:
Brazilian Jiu-jitsu for Kids DVDrip Set by Scott Templeton Part 2 of 3

Opis:
3 częściowy cykl poświęcony Brazylijskiemu Jiu-jitsu dla najmłodszych, opracowany przez Scotta Templetona. Ćwiczenia kontrolujące przeciwnika.

Format : AVI
Format/Info : Audio Video Interleave
File size : 328 MiB
Duration : 42 min 10 s
Overall bit rate : 1 089 kb/s

Video
ID : 0
Format : MPEG-4 Visual
Format profile : [email protected]
Format settings, BVOP : No
Format settings, QPel : No
Format settings, GMC : No warppoints
Format settings, Matrix : Default (H.263)
Codec ID : DIVX
Codec ID/Info : Project Mayo
Codec ID/Hint : DivX 4
Duration : 42 min 10 s
Bit rate : 947 kb/s
Width : 512 pixels
Height : 400 pixels
Display aspect ratio : 1.280
Frame rate : 29.970 (30000/1001) FPS
Color space : YUV
Chroma subsampling : 4:2:0
Bit depth : 8 bits
Scan type : Progressive
Compression mode : Lossy
Bits/(Pixel*Frame) : 0.154
Stream size : 286 MiB (87%)
Writing library : FFmpeg0.4.9-pre1b4721

Audio
ID : 1
Format : MPEG Audio
Format version : Version 1
Format profile : Layer 3
Format settings : Joint stereo / MS Stereo
Codec ID : 55
Codec ID/Hint : MP3
Duration : 42 min 10 s
Bit rate mode : Constant
Bit rate : 128 kb/s
Channel(s) : 2 channels
Sampling rate : 44.1 kHz
Compression mode : Lossy
Stream size : 38.6 MiB (12%)
Alignment : Aligned on interleaves
Interleave, duration : 26 ms (0.78 video frame)
Interleave, preload duratio : 522 ms
Writing library : LAME3.96
Parametry kompresji:
Kompresja : 7z
Hasło : Qaz123.
Download:

Treść widoczna tylko dla użytkowników forum SdCv.pl Zaloguj się lub załóż darmowe konto na forum aby uzyskać dostęp bez limitów.
zygi151151 jest offline  

Tagi
brazilian, cz3, jiujitsu, kids, kontrola, przeciwnika


Podobne wątki
Wątek Autor wątku Forum Odpowiedzi Ostatni post / autor
Brazilian Jiu-jitsu for Kids cz2. Podstawowe chwyty i obrona [EN] zygi151151 Inne 0 08-02-19 15:53
Brazilian Jiu-jitsu for Kids cz1 Podstawowe ćwiczenia [EN} zygi151151 Inne 0 08-02-19 15:49
Brazilian Jiu-Jitsu: For Experts Only uploaderpro E-Booki [Obcojęzyczne] 0 26-12-13 22:46
Brazilian Jiu-Jitsu Weekly Weeks (Part 4) ryuzin E-Booki [Obcojęzyczne] 0 04-09-11 17:06
Brazilian Jiu-Jitsu Instructional 3-DVD Set superminsk E-Booki [Obcojęzyczne] 0 24-03-11 11:22


Narzędzia wątku


Witaj na Sdcv.pl! - Najlepszym forum komputerowym!
Zarejestruj się, a gdy tylko aktywujesz swoje konto, będziesz miał(a) pełny dostęp do zawartości forum!
Nowe znajomości i ciekawe dyskusje, są na wyciągnięcie ręki !



Powered by vBulletin®
Copyright © Sdcv.pl 2007 - 2018
Czasy w strefie GMT +2. Teraz jest 04:12.