Wróć   Sdcv.pl - Forum komputerowe > Download > Pozostałe


Pozostałe Wszystko co nie pasuje do działów wyżej. Bez Komentarzy



 
Narzędzia wątku
Stare 11-01-11, 01:55   #1
hoolio_mind
Gość
 
Awatar hoolio_mind
 
Posty: n/a
Domyślnie Niesamowity pokaz sztucznych ogni - Londyn 2011

Niesamowity pokaz sztucznych ogni - Londyn 2011 - 4,14 GB - FullHD 1080i 1920x1080

Niesamowity pokaz sztucznych ogni - Londyn 2011

General
ID : 1 (0x1)
Complete name : D:\Download\London.New.Years.Fireworks.2011.MPEG2. 1080i.ts
Format : MPEG-TS
File size : 4.14 GiB
Duration : 12mn 49s
Overall bit rate : 46.2 Mbps
Maximum Overall bit rate : 35.5 Mbps

Video
ID : 4113 (0x1011)
Menu ID : 1 (0x1)
Format : MPEG Video
Format version : Version 2
Format profile : [email protected]
Format settings, BVOP : Yes
Format settings, Matrix : Default
Codec ID : 2
Duration : 12mn 49s
Bit rate mode : Variable
Bit rate : 44.9 Mbps
Width : 1 920 pixels
Height : 1 080 pixels
Display aspect ratio : 16:9
Frame rate : 25.000 fps
Color space : YUV
Chroma subsampling : 4:2:0
Bit depth : 8 bits
Scan type : Interlaced
Scan order : Top Field First
Compression mode : Lossy
Bits/(Pixel*Frame) : 0.865
Stream size : 3.91 GiB (94%)

Audio
ID : 4352 (0x1100)
Menu ID : 1 (0x1)
Format : MPEG Audio
Format version : Version 1
Format profile : Layer 2
Codec ID : 4
Duration : 12mn 49s
Bit rate mode : Constant
Bit rate : 256 Kbps
Channel(s) : 2 channels
Sampling rate : 48.0 KHz
Compression mode : Lossy
Video delay : 200ms
Stream size : 23.5 MiB (1%)
Niesamowity pokaz sztucznych ogni - Londyn 2011

Niesamowity pokaz sztucznych ogni - Londyn 2011
Niesamowity pokaz sztucznych ogni - Londyn 2011

Niesamowity pokaz sztucznych ogni - Londyn 2011
Niesamowity pokaz sztucznych ogni - Londyn 2011



Treść widoczna tylko dla użytkowników forum SdCv.pl Zaloguj się lub załóż darmowe konto na forum aby uzyskać dostęp bez limitów.

lub w 1 pliku - pobierz szybciej i wygodniej



Treść widoczna tylko dla użytkowników forum SdCv.pl Zaloguj się lub załóż darmowe konto na forum aby uzyskać dostęp bez limitów.
 

Tagi
2011, londyn, niesamowity, ogni, pokaz, sztucznych


Podobne wątki
Wątek Autor wątku Forum Odpowiedzi Ostatni post / autor
Manchester Utd vs Chelsea Londyn 03.04.2010.PL kros Inne Gatunki 0 04-04-10 13:57
Polskie Radio Londyn w Cyfrowym Polsacie? passenger57 Nowości Tv-Sat 0 20-06-09 10:44


Narzędzia wątku


Witaj na Sdcv.pl! - Najlepszym forum komputerowym!
Zarejestruj się, a gdy tylko aktywujesz swoje konto, będziesz miał(a) pełny dostęp do zawartości forum!
Nowe znajomości i ciekawe dyskusje, są na wyciągnięcie ręki !



Powered by vBulletin®
Copyright © Sdcv.pl 2007 - 2018
Czasy w strefie GMT +2. Teraz jest 19:58.