Wróć   Sdcv.pl - Forum komputerowe > Download > Pozostałe


Pozostałe Wszystko co nie pasuje do działów wyżej. Bez Komentarzy



 
Narzędzia wątku
Stare 12-02-19, 04:13   #1
zygi151151
..:: Junior Member ::..
 
Awatar zygi151151
 
Dołączył: Jan 2019
Skąd: Polska
Wiek: 31
Posty: 62
Rozdane podziękowania: 0
Podziękowano mu 1 raz
Siła reputacji: 3
zygi151151
Domyślnie Easy Techniques For Self Defense [EN]

Tytuł:
Easy Techniques For Self Defense

Opis:
Zestaw ćwiczeń z samoobrony, dla osób początkujących.
Dane techniczne:
Format : AVI
Format/Info : Audio Video Interleave
File size : 699 MiB
Duration : 1 h 29 min
Overall bit rate mode : Variable
Overall bit rate : 1 086 kb/s
Writing library : VirtualDub build 0/release

Video
ID : 0
Format : MPEG-4 Visual
Format profile : Advanced [email protected]
Format settings, BVOP : No
Format settings, QPel : No
Format settings, GMC : No warppoints
Format settings, Matrix : Default (H.263)
Codec ID : DIVX
Codec ID/Info : Project Mayo
Codec ID/Hint : DivX 4
Duration : 1 h 29 min
Bit rate : 956 kb/s
Width : 512 pixels
Height : 384 pixels
Display aspect ratio : 4:3
Frame rate : 29.970 (30000/1001) FPS
Color space : YUV
Chroma subsampling : 4:2:0
Bit depth : 8 bits
Scan type : Progressive
Compression mode : Lossy
Bits/(Pixel*Frame) : 0.162
Stream size : 615 MiB (88%)
Writing library : XviD 1.1.2 (UTC 2006-11-01)

Audio
ID : 1
Format : MPEG Audio
Format version : Version 1
Format profile : Layer 3
Format settings : Joint stereo / MS Stereo
Codec ID : 55
Codec ID/Hint : MP3
Duration : 1 h 29 min
Bit rate mode : Variable
Bit rate : 128 kb/s
Channel(s) : 2 channels
Sampling rate : 48.0 kHz
Compression mode : Lossy
Stream size : 75.0 MiB (11%)
Alignment : Aligned on interleaves
Interleave, duration : 24 ms (0.72 video frame)
Interleave, preload duratio : 444 ms
Dane kompresji:
Wielkość wstawki : 693 MB
Kompresja : 7z
Hasło : Qaz123.
Download:


Treść widoczna tylko dla użytkowników forum SdCv.pl Zaloguj się lub załóż darmowe konto na forum aby uzyskać dostęp bez limitów.
zygi151151 jest offline  

Tagi
defense, easy, techniques


Podobne wątki
Wątek Autor wątku Forum Odpowiedzi Ostatni post / autor
Wing Chun - Self Defense Techniques TheCornor Kursy / Nauka języków 0 26-01-19 11:55
Self Defense Techniques & Training TheCornor Kursy / Nauka języków 0 28-12-18 21:56
Self Defense Techniques Everyone Should Know | Martial Arts TheCornor Kursy / Nauka języków 0 15-08-18 22:23
Eric Quequet - Savate Defense: Advanced Techniques uploaderpro Audiobooki [Obcojęzyczne] 0 17-01-12 04:32
Eric Quequet - Savate Defense: Basic Techniques uploaderpro Audiobooki [Obcojęzyczne] 0 17-01-12 03:54


Narzędzia wątku


Witaj na Sdcv.pl! - Najlepszym forum komputerowym!
Zarejestruj się, a gdy tylko aktywujesz swoje konto, będziesz miał(a) pełny dostęp do zawartości forum!
Nowe znajomości i ciekawe dyskusje, są na wyciągnięcie ręki !



Powered by vBulletin®
Copyright © Sdcv.pl 2007 - 2018
Czasy w strefie GMT +2. Teraz jest 04:12.